AnimeSuki Forums

Register Forum Rules FAQ Members List Social Groups Search Today's Posts Mark Forums Read

Go Back   AnimeSuki Forum > Anime Related Topics > Fan Creations

Notices

Reply
 
Thread Tools
Old 2009-07-16, 02:15   Link #1
KidKaBOOM
Master of Cheese
 
 
Join Date: Feb 2008
Location: Renton, WA
Send a message via AIM to KidKaBOOM
4-2-the floor super hi-speed tunnelin' upfront J-core, an electronic dance music mix.

So whats up with this?
J-Core is short for Japanese hardcore, a sub-genre of Hardcore a style of electronic dance music. Its fast stuff, this mix in particular is around 175 beats per minute. Your average top 40/pop song is around 75-100 bpm. Anyway nothing explains it better then listening... OOh you'll also hear a few familiar voices in this mix, as this mix is dedicated to my fellow otaku. ^_^



4-2-the floor super hi-speed tunnelin' upfront J-core


Artist - Song Title - Label/Album

REDALiCE - Grime Trooper - Crimson Hardcore
JAKAZiD pres SKB48 - Holy Humiliation - True Rape Hardcore ~Feast of Eros~
Muzik Servant - 超時空硬核少女 - J-core Masterz Vol 4.
Ryu - Orion - Hardcore Syndrome 2
Ian K. - BootyFull - MadPanik Records.
DJ Sharpnel - Cyber Inductance - Sharpnelsound
Bitwixt & Between - Invoker - DiGiTAL GENERATiON EP
Next Tribe - The Bent Lover 2005 - ??
DJ Sharpnel - Takecore of Yourself - Sharpnelsound
Muzik Servant - Spiral Drill Power - J-core Masterz Vol 3.

Some of those albums can be purchased here:
http://www.j-core.biz/

If you can't find it there, Amazon.jp may have it or Trackitdown.com

If you like what you heard here than you'll probably enjoy lots of other hardcore.

*Note, the Ian K. track isn't technically J-core, he lives around here. BUT, he is mostly Japanese and the track did just see release so I wanted to support. Therefore he made the cut.

Happy listening.

You can find links to all my mixes, either Streaming or Downloads here: http://waxdj.com/djs/7082/

Last edited by KidKaBOOM; 2009-07-30 at 04:32.
KidKaBOOM is offline   Reply With Quote
Old 2009-07-20, 11:50   Link #2
KidKaBOOM
Master of Cheese
 
 
Join Date: Feb 2008
Location: Renton, WA
Send a message via AIM to KidKaBOOM
Sweet'n'sour eclectic, joyous, seizure power 9000!

Extra spicy order no. 3 sweet'n'sour eclectic seizure power hour 9000!

1. DJ Sharpnel - Follow You
2. REDALiCE - Presonus (Next Tribe Remix)
3. t+pazolite - Darknight
4. DOK & Ponder vs Ting - What U Don't know
5. M-Project feat Jabbawock - Turn Around (2007 Remix)
6. Northern Lights - Love of My Life (Ham Remix)
7. Yoccho & REDALiCE - Regression
8. DJ Sharpnel - Sound of SoS
9. DJ Technorch - 虚無への供物 ~For Nothing~
10. REDALiCE - Warp Attacker (Betwixt & Between Remix) (4A
11. Round Wave Cruher - French Maid (Please clean my room) 6A
12. DJ Zaiaku - CiCadaz CrieZ
13. REDALiCE - Energy Blast
14. GOD.od - Xenosaga D2
15. DJ Sharpnel - Keepout L.S.X.
16. Shingo DJ - Lunatic Drive
17. P.S.C. - 霧の世界
18. DJ Shimamura - Dream Up (Innocent Riot Mix)
19. DJ Doll Renaissance - Negimaniax
20. DJ Sharpnel - Total Fatanity

Click to download your mega happy seizure time

Last edited by KidKaBOOM; 2009-07-26 at 19:41.
KidKaBOOM is offline   Reply With Quote
Old 2009-07-21, 23:49   Link #3
KidKaBOOM
Master of Cheese
 
 
Join Date: Feb 2008
Location: Renton, WA
Send a message via AIM to KidKaBOOM
KID KABOOM PReSents, even more J-c0RE for yo A$$! HYPER MEGA TRANCE STYLE'nz! CHECK IT!

Ub3R Sp33D freaks 25-million calorie happy raver dance'n'burnout sessions Vol 1!
1. Hyperactive - Let Me Play
2. Kazuma Minamoto - Into the Night (redalice remix)
3. Dream Foundation - Hold You Tonight
4. Biri - Tag (Hardbeat Remix-REDAliCE REREmix)
5. Dj Sharpnel - Pretty Green Onions
6. Samuraigirl - Watashi wa Anata no Mono (DJ Shimamura's Hardcore Mix)
7. t+pazolite - Star in Heaven
8. Musik Servant - Into the Sky
9. REDALiCE - Resonus 2008 (Thanatos Remix)
10. M-Project - Kidz War (Jakazid Remix)
11. Alabaster - Parhelia
12. LV 4. - Buster Launcher
13. USAO - Far World
14. DJ Unknown - Seaside Sounds
15. EVOL - Bright Future (Jakazid Remix)

Run time is bout 40min.

STREAM
DOWNLOAD
KidKaBOOM is offline   Reply With Quote
Old 2009-07-26, 19:44   Link #4
KidKaBOOM
Master of Cheese
 
 
Join Date: Feb 2008
Location: Renton, WA
Send a message via AIM to KidKaBOOM
Ub3R Sp33D Fr3aks 33.3-million jumps per second bipolar blitzkrieg session Vol 2.

1. DJ Shapnel - World Sound
2. Dj Noriken - Sunset Emotion
3. Hirojack feat Sola - Change my Mind
4. Neon Genesis Gabbangelion - Blue Noah
5. Betwixt & Between - From the Abyss
6. Lost Soul - Love Can Destroy
7. Oli G - Cordelia
8. Alabaster - Stitch in Time
9. DJ Sharpnel - W
10. Dougal, Gammer & TKM - 1066
11. BnH - 2B
12. LV. 4 - XQCL
13. Stompy & Smithers - Rolf
14. DJ Storm - I will love again (Sunrize exclusive hard mix)
15. Alabaster - Void

Download
Stream

Once again, another crazy mix with another crazy name. Support the CORE!
KidKaBOOM is offline   Reply With Quote
Old 2009-07-27, 10:46   Link #5
OceanBlue
Not an expert on things
 
 
Join Date: Jun 2007
Are these continuous mixes or are they separate songs on one MP3? If they're separate songs, then can you make a CUE so we can split the files?

I listened to some of the stream, and I liked it so far. Nice job on these.
OceanBlue is offline   Reply With Quote
Old 2009-07-27, 17:26   Link #6
KidKaBOOM
Master of Cheese
 
 
Join Date: Feb 2008
Location: Renton, WA
Send a message via AIM to KidKaBOOM
It is a continuous mix. So its a bunch of separate songs (2-5min) stringed, mixed if you will, together to make one giant song. I plan on tracking them out and distributing them in person at events once I have the covers finished. All FREE OF COURSE!

Preview of CD insert(s)



Old title of the mix used on insert, so I think I'll change it back. X_x


I can recommend a program to you that is free that you could use to track it out yourself and yes, I could provide a QUE file, HTH.

Cheers and thanks for listening. <3<3

Last edited by KidKaBOOM; 2009-07-27 at 20:20.
KidKaBOOM is offline   Reply With Quote
Old 2009-08-02, 15:13   Link #7
KidKaBOOM
Master of Cheese
 
 
Join Date: Feb 2008
Location: Renton, WA
Send a message via AIM to KidKaBOOM
Here are two QUE files... making them is annoying.

Can't seem to find the program I used before to make QUE sheets with just spacebar and listening versus typing it out. argH! But here it is... Change what you need..

PERFORMER "Kid KaBOOM"
TITLE "Sweet and sour eclectic joyous seizure power hour 9000"
FILE "c:\Kid KaBOOM - Sweet and sour eclectic joyous seizure power hour 9000.mp3" MP3
TRACK 01 AUDIO
TITLE "Follow You"
PERFORMER "DJ Sharpnel"
INDEX 01 00:00:00
TRACK 02 AUDIO
TITLE "Presonus (Next Tribe Remix)"
PERFORMER "REDALiCE"
INDEX 01 05:04:00
TRACK 03 AUDIO
TITLE "Darknight"
PERFORMER "t+pazolite"
INDEX 01 07:42:00
TRACK 04 AUDIO
TITLE "What U Don't know"
PERFORMER "DOK & Ponder vs Ting"
INDEX 01 10:07:00
TRACK 05 AUDIO
TITLE "Turn Around (2007 Remix)"
PERFORMER "M-Project feat Jabbawock"
INDEX 01 12:36:00
TRACK 06 AUDIO
TITLE "Love of My Life (Ham Remix)"
PERFORMER "Northern Lights"
INDEX 01 14:40:00
TRACK 07 AUDIO
TITLE "Regression"
PERFORMER "Yoccho & REDALiCE"
INDEX 01 16:44:00
TRACK 08 AUDIO
TITLE "Sound of SoS"
PERFORMER "DJ Sharpnel"
INDEX 01 18:56:00
TRACK 09 AUDIO
TITLE " ______ ~For Nothing~"
PERFORMER "DJ Technorch"
INDEX 01 22:29:00
TRACK 10 AUDIO
TITLE "Warp Attacker (Betwixt & Between Remix)"
PERFORMER "REDALiCE"
INDEX 01 24:35:00
TRACK 11 AUDIO
TITLE "French Maid (Please clean my room)"
PERFORMER "Round Wave Cruher"
INDEX 01 26:38:00
TRACK 12 AUDIO
TITLE "CiCadaz CrieZ"
PERFORMER "DJ Zaiaku"
INDEX 01 28:15:00
TRACK 13 AUDIO
TITLE "Energy Blast"
PERFORMER "REDALiCE"
INDEX 01 31:33:00
TRACK 14 AUDIO
TITLE "Xenosaga D2"
PERFORMER "GOD.od"
INDEX 01 33:20:00
TRACK 15 AUDIO
TITLE "Keepout L.S.X."
PERFORMER "DJ Sharpnel"
INDEX 01 37:16:00
TRACK 16 AUDIO
TITLE "Lunatic Drive"
PERFORMER "Shingo DJ"
INDEX 01 40:20:00
TRACK 17 AUDIO
TITLE "____"
PERFORMER "P.S.C."
INDEX 01 43:33:00
TRACK 18 AUDIO
TITLE "Dream Up (Innocent Riot Mix) "
PERFORMER "DJ Shimamura"
INDEX 01 45:20:00
TRACK 19 AUDIO
TITLE "Negimaniax"
PERFORMER "DJ Doll Renaissance"
INDEX 01 49:45:00
TRACK 20 AUDIO
TITLE "Total Fatanity"
PERFORMER "DJ Sharpnel"
INDEX 01 52:37:00






PERFORMER "Kid KaBOOM"
TITLE "Ub3R Sp33D Fr3aks 25-million calorie happy raver dance'n'burnout sessions Vol 1"
FILE "c:\Kid KaBOOM - Ub3R Sp33D Fr3aks 25-million calorie happy raver dance'n'burnout sessions Vol 1.mp3" MP3
TRACK 01 AUDIO
TITLE "Let Me Play"
PERFORMER "Hyperactive"
INDEX 01 02:08:00
TRACK 02 AUDIO
TITLE "Into the Night (redalice remix)"
PERFORMER "Kazuma Minamoto"
INDEX 01 04:30:00
TRACK 03 AUDIO
TITLE "Hold You Tonight"
PERFORMER "Dream Foundation"
INDEX 01 07:42:00
TRACK 04 AUDIO
TITLE "Tag (Hardbeat Remix-REDAliCE REREmix)"
PERFORMER "Biri"
INDEX 01 06:22:00
TRACK 05 AUDIO
TITLE "Pretty Green Onions"
PERFORMER "Dj Sharpnel"
INDEX 01 09:18:00
TRACK 06 AUDIO
TITLE "Watashi wa Anata no Mono (DJ Shimamura's Hardcore Mix)"
PERFORMER "Samuraigirl"
INDEX 01 11:18:00
TRACK 07 AUDIO
TITLE "Star in Heaven"
PERFORMER "t+pazolite"
INDEX 01 13:59:00
TRACK 08 AUDIO
TITLE "Into the Sky"
PERFORMER "Musik Servant"
INDEX 01 16:34:00
TRACK 09 AUDIO
TITLE "Resonus 2008 (Thanatos Remix)"
PERFORMER "REDALiCE"
INDEX 01 19:19:00
TRACK 10 AUDIO
TITLE "Kidz War (Jakazid Remix)"
PERFORMER "M-Project"
INDEX 01 21:41:00
TRACK 11 AUDIO
TITLE "Parhelia"
PERFORMER "Alabaster"
INDEX 01 24:28:00
TRACK 12 AUDIO
TITLE "Buster Launcher"
PERFORMER "LV 4."
INDEX 01 26:39:00
TRACK 13 AUDIO
TITLE "Far World"
PERFORMER " USAO"
INDEX 01 30:30:00
TRACK 14 AUDIO
TITLE "Seaside Sounds"
PERFORMER "DJ Unknown"
INDEX 01 33:01:00
TRACK 15 AUDIO
TITLE "Bright Future (Jakazid Remix)"
PERFORMER "EVOL"
INDEX 01 34:46:00






I'll finish the others later. Hope someone actually uses these bloody things. X_x

Also note I left any Kanji out of artist names and song titles.
KidKaBOOM is offline   Reply With Quote
Reply

Tags
music, otaku

Thread Tools

Posting Rules
You may not post new threads
You may not post replies
You may not post attachments
You may not edit your posts

BB code is On
Smilies are On
[IMG] code is On
HTML code is Off

Forum Jump


All times are GMT -5. The time now is 02:33.


Powered by vBulletin® Version 3.8.7
Copyright ©2000 - 2014, vBulletin Solutions, Inc.
We use Silk.